#TITLE:Super Dancer;
#SUBTITLE:;
#ARTIST:SDO;
#TITLETRANSLIT:;
#SUBTITLETRANSLIT:;
#ARTISTTRANSLIT:SDO;
#CREDIT:;
#BANNER:Super Dancer-bn.png;
#BACKGROUND:Super Dancer-bg.png;
#LYRICSPATH:;
#CDTITLE:pm4cd.png;
#MUSIC:Super Dancer.mp3;
#OFFSET:0.000;
#SAMPLESTART:47.851;
#SAMPLELENGTH:12.000;
#SELECTABLE:YES;
#BPMS:0.000=65.000,21.375=158.100,572.750=65.000;
#STOPS:;
#BGCHANGES:;
// cache tags:
#FIRSTBEAT:10.750;
#LASTBEAT:596.000;
#SONGFILENAME:Songs/nhac/Super Dancer/Super Dancer.sm;
#HASMUSIC:1;
#HASBANNER:1;
#MUSICLENGTH:254.072;
// end cache tags

//---------------dance-single - ----------------
#NOTES:
     dance-single:
     :
     Hard:
     15:
     1.000,1.000,1.000,0.051,1.000,1520.000,485.000,13.000,0.000,77.000:
0000
0000
0000
0000
,
0000
0000
0000
0000
,
0000
0000
0000
0000
0000
0000
0000
0000
0000
0000
0000
1111
0000
0000
0000
0000
,
0000
0000
0000
0000
0000
0000
0000
0000
0000
0000
0000
0010
0000
0000
0000
0000
0000
0000
0000
0000
0000
0000
0000
0000
0000
0000
0000
0000
0000
0000
0000
0000
,
0100
0000
0000
0000
0000
0000
0000
0000
0000
0000
0000
0001
0000
0000
0000
0000
,
0000
0000
0000
0000
0000
0000
0000
0000
0000
0000
0000
0000
0000
0000
0000
0000
0000
0000
0000
0000
0000
0000
0000
0000
0000
0000
0000
0000
0000
0000
0000
0000
0000
0000
0000
0000
0000
0000
0000
0000
0000
0000
0000
0000
0000
0000
0000
0000
0000
0000
0000
0000
0000
0000
0000
0000
0000
0000
0000
0000
0000
0000
0000
0000
0000
0000
0011
0000
0000
0000
0000
0000
0000
0000
0000
0000
0000
0000
0000
0000
1000
0000
0000
0000
0000
0000
0000
0000
0000
0000
0000
0000
0000
0000
0000
0000
0010
0000
0000
0000
0000
0000
0000
0000
0000
0000
0000
0000
0000
0000
0000
0000
1000
0000
0000
0000
0000
0000
0000
0000
0000
0000
0000
0000
0000
0000
0000
0000
0010
0000
0000
0000
0000
0000
0000
0000
0000
0000
0000
0000
0000
0000
0000
0000
1000
0000
0000
0000
0000
0000
0000
0000
0000
0000
0000
0000
0000
0000
0000
0000
0010
0000
0000
0000
0000
0000
0000
0000
0000
0000
0000
0000
0000
0000
0000
0000
1000
0000
0000
0000
0000
0000
0000
0000
0000
0000
0000
0000
0000
0000
0000
0000
,
0010
1000
0010
1000
0010
0100
0001
0100
0001
0100
0001
0100
,
0001
0100
0001
0100
0001
0100
0001
0010
0001
0010
0001
0010
,
0001
0010
0001
0010
0001
0010
0001
0010
0100
1000
0100
1000
,
0100
1000
0100
1000
0100
1000
0100
0010
0100
0010
0100
0021
,
1000
0101
1000
0101
1000
0101
1000
0101
1000
0101
1000
0101
,
1000
0132
0010
1100
0010
1100
0010
1100
0010
1100
0010
1100
,
0010
1100
0010
2103
0011
0100
0011
0100
0011
0100
0011
0100
,
0011
0000
0000
0000
0100
0000
0000
0000
0011
0000
0000
0000
0000
0000
0000
3111
0000
0000
1000
0000
0000
0100
0000
0000
0010
0000
0000
0001
0000
0000
1110
0000
0000
0000
0000
0000
0000
0000
0000
1101
0000
0000
0001
0000
0000
0101
0000
0000
,
0001
0101
0001
0011
0001
0011
0001
0001
1101
0000
0010
0000
0001
0000
1000
0000
,
0101
0010
0001
1010
0001
1010
0100
1001
,
0010
1100
0010
0101
0010
1001
0110
0001
,
0010
0100
0010
1100
0001
0010
0001
1110
,
0000
0000
0000
1011
0000
0000
0000
0000
1011
0000
0000
0000
0000
0111
0000
0000
,
1000
0101
1000
0101
1000
0101
1000
0101
1000
0101
1000
0101
1000
0101
1000
0101
,
1000
0101
1000
0000
1011
0000
0001
1010
0001
1010
0001
1010
0001
1010
0001
1010
,
0001
1010
0001
1010
0100
0011
0100
0011
0100
0011
0100
0011
0100
0011
0100
0011
,
0100
0011
0100
0011
0100
0011
0100
0000
1011
0100
0010
0001
0010
0100
1000
0100
,
0001
0000
0010
0000
0100
0000
1000
0000
0100
0000
0010
0000
0001
0000
0010
0000
0100
0000
1000
0000
0100
0000
0010
0000
0001
0000
0010
0000
0100
0000
1000
0000
0100
0000
0011
0000
0000
0000
0000
0000
0000
0000
0000
0000
0000
1000
0000
0000
,
0000
0101
0000
0010
0000
1100
0000
0010
0000
0101
0000
0010
0000
1100
0000
0000
,
0000
0010
0000
1100
0000
0010
0000
0101
0000
0010
0000
1100
0000
0001
0000
1010
,
0000
0100
0000
1001
0000
0000
0000
0010
0000
1001
0000
0100
0000
0011
0000
0100
,
0000
1001
0000
0100
0000
0011
0000
1000
0000
0101
0000
0010
0000
1001
0000
0010
,
0000
1100
0000
0001
0000
1100
0000
0010
0000
0101
0000
1000
0000
0101
0000
1000
,
0000
0011
0000
0100
0000
1010
0000
0001
0000
1010
0000
0100
0000
0011
0000
0100
,
0000
1001
0000
0010
0000
0101
0000
1000
0000
0011
0000
0100
0000
0010
0000
0101
,
0000
1000
0000
0011
0000
0100
0000
1001
0000
0010
0000
1100
0010
0001
0010
0100
,
1000
0100
0001
0010
0100
1000
0100
0010
0001
0010
0100
1000
0100
0010
1101
0010
,
1000
0100
0001
0010
1000
0100
0010
0001
0100
0010
1000
0100
1000
0001
0010
1000
,
0100
0001
0010
0100
0010
0001
1000
0100
0010
0001
0100
0010
1000
0001
0010
0100
,
1000
0010
0100
0001
1000
0100
0010
0100
1000
0001
0010
0100
0010
0001
1000
0010
,
0100
0001
0100
0010
1000
0100
0010
0100
1000
0001
0010
0100
1000
0001
0010
1000
,
0100
0001
0100
1000
0010
0001
0010
0100
0010
0001
1000
0100
1000
0100
0010
0100
,
1000
0010
0100
0001
0010
0001
0010
0100
1000
0100
0010
0100
0010
0001
1000
0100
,
0010
0100
0010
0100
1000
0100
0010
0001
0010
0001
0010
0100
1000
0001
0010
1000
,
0010
0100
0001
1000
0100
0010
0100
1000
0010
0001
0010
0001
0010
0001
1010
0001
,
1010
0001
1010
0001
1010
0001
1010
0001
1010
0001
1010
0001
1010
0001
1010
0001
,
1010
0000
0000
0010
0000
0101
0000
0010
1100
0000
0001
0000
1010
0000
0100
0000
,
0011
0000
0100
0000
1010
0000
0001
0000
1100
0000
0010
0101
0000
1000
0000
0011
,
0000
0100
0000
1001
0000
0010
0000
1100
0000
0010
0000
0101
0000
1000
0011
0000
,
0100
0000
1001
0000
0010
0000
0101
0000
0010
0000
1100
0000
0010
0000
1000
0011
,
1000
0010
0100
0001
0010
0100
1000
0010
0001
0100
0010
0000
1001
0000
0010
0000
,
1100
0010
0101
1000
0011
0100
1001
0010
,
1100
0010
0101
0010
1100
0001
1010
0100
,
1001
0010
1100
0010
0101
0010
1001
0010
,
1000
0000
0000
0101
0000
0000
1000
0000
0000
0001
0000
0000
1010
0000
0000
0001
0000
0000
1100
0000
0000
0010
0000
0000
1100
0000
0000
0000
0001
0000
0010
0000
0100
0000
1000
0000
0100
0000
0010
0000
0001
0000
0010
0000
0100
0000
1000
0000
,
0100
0010
0001
0010
0100
1000
0111
0000
0000
0000
1000
0000
0101
0000
0000
0000
0010
0000
1100
0000
0000
0000
0001
0000
,
0110
0000
1000
0101
0000
0010
0101
0000
0010
1100
0000
0001
,
1010
0000
0100
1010
0000
0010
1100
0000
1000
0101
0000
0010
,
1100
0000
0010
0101
0000
0001
0110
0000
1000
0110
0000
0001
,
1100
0000
0010
0101
0000
1000
1100
0000
0001
0101
0000
0010
,
0110
0000
1000
1010
0000
0100
0110
0000
0001
0011
0000
0100
,
0101
0000
0010
1010
0000
1000
1001
0000
0010
0011
0000
0100
,
1100
0000
0001
1001
0000
0010
0011
0000
1000
1100
0000
0001
,
0011
0000
0100
0110
0000
0010
1010
0000
0100
0101
0000
0010
,
0011
0000
0100
1100
0000
0001
1010
0000
1000
0101
0000
0010
,
1100
0000
0100
0011
0000
0010
0101
0000
0100
1010
0000
0001
,
1100
0000
1000
0011
0000
0001
1010
0000
1000
0101
0000
0010
,
1001
0000
0100
1001
0000
0010
1100
0000
0100
0011
0000
1000
,
1100
0000
0001
0011
0000
0100
1100
0000
0010
0011
0000
0100
,
0101
0000
1000
0101
0000
0001
0101
0000
0010
0101
0000
1000
,
1010
0000
0100
1010
0000
0010
1010
0000
0001
1010
0000
0100
,
1100
0000
1000
1100
0000
0010
1100
0000
0001
1100
0000
0010
,
0110
0000
0000
0000
0000
0000
0000
0000
1000
0000
0000
0000
0110
0000
0000
0000
0000
0000
0001
0000
0000
0010
0000
0000
0100
0000
0000
1000
0000
0000
0100
0000
0000
0010
0000
0000
0001
0000
0000
0010
0000
0000
0100
0000
0000
1000
0000
0000
,
0100
0000
0000
0010
0000
0000
0001
0000
0010
0000
0100
0000
1000
0000
0100
0000
0010
0000
0001
0000
0010
0000
0100
0000
1000
0000
0100
0000
0010
0000
1101
0000
0000
0000
0000
0000
0010
0000
0000
0000
0000
0000
0101
0000
0000
0000
0000
0000
,
1000
0011
0100
1001
0010
1100
0011
0100
,
1001
0010
1100
0010
0101
1000
0011
1100
,
0010
0101
1000
0011
0100
1001
0010
0101
,
0010
1001
0010
1100
0010
0101
1000
0011
,
0100
1001
0010
1100
0010
0101
1000
0011
,
0100
1010
0101
0010
1100
0010
0101
1000
,
0011
0100
1001
0010
1100
0010
1001
0010
,
1100
0000
0010
0000
0101
0000
1000
0000
0011
1000
0100
0010
0001
0010
0100
1000
,
0100
0010
0001
0010
0100
1000
0100
0010
0100
1000
0100
0010
1101
0010
0100
1000
,
0010
0100
0001
0010
0100
0010
0001
1000
0100
1000
0100
0001
0010
0100
1000
0010
,
0001
0010
0100
1000
0010
0001
0010
1000
0100
1000
0010
0100
0010
1000
0100
0001
,
0010
0100
1000
0001
1000
0010
0100
0001
0100
0001
0010
1000
0010
1000
0100
0001
,
0010
0100
1000
0100
0010
0001
0010
0100
1000
0100
0010
0100
0010
0001
0010
0100
,
0010
0100
1000
0010
0100
0001
0010
1000
0100
0001
0100
0010
1000
0001
0100
0010
,
1000
0001
0010
0100
1000
0010
0100
0001
1000
0100
1000
0001
0010
0001
0100
0010
,
0100
1000
0001
0010
0100
1000
0010
0100
0001
0010
0001
1000
0100
0010
0001
0100
,
0010
0100
0001
0010
0100
1000
0100
1000
0100
0010
0100
0010
0100
0001
0010
0100
,
1000
0100
0010
0001
0010
0100
1000
0010
0100
0010
0001
0010
0100
1000
0100
1011
,
0000
0100
0000
0011
0000
0100
1001
0000
0010
0000
1100
0000
0010
0000
0101
0000
,
0010
0000
1100
0000
0010
0000
0101
0000
0010
1100
0000
0001
0000
1100
0000
0010
,
0000
0101
0000
0010
0000
1100
0000
0010
0000
1001
0000
0100
0011
0000
1000
0000
,
0101
0000
0010
0000
1100
0000
0010
0000
0101
0000
0010
0000
1100
0000
0001
0010
,
0100
1000
0100
0010
0001
1000
0100
0010
0100
1001
0000
0010
0000
1100
0000
0001
,
1010
0100
0011
0100
1001
0010
0101
1000
,
0011
0000
0100
1001
0000
0010
0000
0101
0000
0010
0000
1100
0000
0001
0000
1010
,
0000
0100
0000
0011
0000
1000
0011
0000
0100
0000
1001
0000
0010
0000
1100
0010
,
0001
0010
0001
0010
0100
1000
0100
0010
0001
0010
0100
1000
0100
0010
0001
0010
,
1000
0100
1011
0000
0101
0000
1010
0000
0101
0000
0110
0000
1100
0000
0110
0000
,
0011
1100
0011
1010
1001
1010
0101
1100
,
1010
0101
0110
1100
0101
1010
0110
0011
,
0110
1100
0101
1010
0011
0111
1100
1011
,
1001
0000
1101
0000
1010
0000
1101
0000
1001
0000
1110
0000
0012
1100
0010
1100
,
0010
1100
0010
1100
0010
1100
0010
1100
0010
1100
0010
1100
0010
1100
0010
2103
,
0011
0100
0011
0100
0011
0100
0011
0100
0011
0100
0011
0100
0011
0100
0011
3102
,
1010
0100
1010
0100
1010
0100
1010
0100
1010
0100
1010
0100
1010
0100
1010
0100
,
1010
0100
1013
0100
0010
0100
0001
1000
0010
0100
0010
0001
0010
0100
1000
0100
,
0010
0000
0000
0001
0000
0000
0010
0000
0000
0100
0000
0000
1000
0000
0000
0111
0000
0000
0000
0000
1000
0000
0000
0000
0101
0000
0000
0000
0000
0000
0000
0000
0010
0000
0000
0000
1100
0000
0000
0000
0000
0000
0000
0000
0001
0000
0000
0000
,
1010
0000
0100
0011
0000
1000
0110
0000
0001
1100
0000
0010
,
1001
0000
0100
1010
0000
0001
1100
0000
0010
0101
0000
1000
,
0110
0000
0001
1010
0000
0100
0011
0000
1000
0011
0000
0100
,
1010
0000
0001
1100
0000
0010
0101
0000
1000
0011
0000
0001
,
1010
0000
0001
0011
0000
0100
0110
0000
1000
1010
0000
0100
,
0101
0000
0010
0011
0000
1000
1100
0000
0010
0110
0000
0001
,
1001
0000
1000
1001
0000
0010
1010
0000
0100
0101
0000
0001
,
0101
0000
1000
1001
0000
0010
1010
0000
1000
1100
0000
0001
,
0011
0000
0100
0101
0000
0010
1010
0000
0001
0011
0000
1000
,
1100
0000
0010
0011
0000
0100
1100
0000
0010
1010
0000
0100
,
0101
0000
1000
1100
0000
0001
0011
0000
0100
1100
0000
0010
,
0011
0000
0100
0110
0000
0001
0101
0000
1000
1010
0000
0100
,
0101
0000
0010
1010
0000
0001
1001
0000
0010
0110
0000
0100
,
1100
0000
0001
0101
0000
0010
1010
0000
0001
0011
0000
1000
,
1100
0000
0001
1001
0000
0100
0110
0000
0010
1010
0000
0001
,
0011
0000
1000
1100
0000
0010
0110
0000
1000
1100
0000
0001
,
1001
0000
0000
0000
0000
0000
0000
0000
0001
0000
0000
0000
0101
0000
0000
0000
0000
0000
0000
0000
0100
0000
0000
0000
0000
0000
0000
1001
0000
0000
0110
0000
0000
1001
0000
0000
0110
0000
0000
1001
0000
0000
0110
0000
0000
1001
0000
0000
,
0110
1001
0110
1001
0110
1001
0110
1001
0110
1001
0110
1001
0000
1010
0000
0100
,
0000
0011
0000
0100
0000
1010
0000
0001
0000
1100
0000
0010
0000
0101
0000
1000
,
0000
0011
0000
0100
0000
1001
0000
0010
0000
0101
0000
1000
0000
0011
0000
0100
,
0000
1001
0000
0010
0000
1100
0000
0010
0000
0101
0000
0010
0000
1100
0000
0010
,
0000
0101
0000
0010
0000
1001
0000
0100
0000
0011
0000
1000
0000
0101
0000
1000
,
0000
0011
0000
0100
0000
1001
0000
0010
0000
1100
0000
0001
0000
1010
0000
0001
,
0000
1100
0000
0010
0000
0101
0000
1000
0000
0011
0000
0100
0000
1010
0000
0100
,
0000
0011
0000
1000
0000
0101
0000
0010
0000
1100
0000
0010
0000
0101
0000
1000
,
0000
0011
0000
0100
0000
1001
0000
0010
0000
1100
0000
0001
0010
0100
1000
0100
,
0010
0001
1000
0100
0010
0001
0010
0100
1000
0001
0010
0100
1000
0100
1011
0100
,
0010
0100
1000
0010
0100
0010
1000
0100
1000
0001
0010
0100
1000
0010
0100
0010
,
0001
0010
0100
1000
0001
0010
0001
1000
0100
0010
1000
0100
0001
1000
0100
0010
,
0001
1000
0010
0100
0001
0010
0100
0010
0001
1000
0100
0001
0010
1000
0100
0010
,
1000
0100
0010
1000
0001
0010
0100
0001
0100
1000
0100
0010
1000
0010
0100
0010
,
0001
0010
0100
1000
0010
0100
0001
0010
0100
1000
0010
0100
0010
0001
1000
0100
,
0010
0100
0001
0010
1000
0100
0010
0100
0001
0010
1000
0001
0100
0010
1000
0010
,
0100
0001
0010
0100
1000
0010
0100
0001
1000
0100
0001
1000
0010
0100
0010
0001
,
1000
0100
0010
1100
0011
1100
0011
1100
0011
1100
0011
1100
0011
1100
0000
1111
,
0000
0200
0320
0032
,
0000
1013
0000
0000
0000
0000
0000
0000
0000
0000
0000
0000
0000
0100
0000
0000
,
0000
0000
0000
0000
0000
0000
0000
0001
0000
0000
0000
0000
0000
0000
0000
0000
,
0000
0100
0000
0000
0000
0000
1111
0000
,
0000
0000
0000
0000
0000
0000
0000
0000
0000
0000
0000
0000
0000
1000
0000
0000
0000
0000
0000
0000
0000
0000
0000
0000
0000
0000
0000
0000
0000
0000
0000
0000
,
0000
0000
0000
0001
0000
0000
0000
0000
0000
0000
0000
0000
0000
0000
0000
0000
0000
0000
0000
0000
0000
0000
0000
0000
0100
0000
0000
0000
0000
0000
0000
0000
,
0000
0000
0000
0000
0000
0000
0000
0000
0000
0000
0000
0000
0000
2222
0000
0000
0000
0000
0000
0000
0000
0000
0000
0000
0000
0000
0000
0000
0000
0000
0000
0000
,
3333
0000
0000
0000
;
